Films

Doubles Vies

04-10-2019
Doubles Vies


Origine du film :France
Acteur(s) :Guillaume Canet, Juliette Binoche, Vincent Macaigne
Genre :Comédie,Romance,
Année de sortie :2019-01-16
Titre Original :Doubles Vies
Note spectateur : - 1.9/5
Qualité/Format/Langue: HDLight 1080p FRENCH

Alain dirige une célèbre maison d'édition, où son ami Léonard, écrivain bohème publie ses romans. La femme d'Alain, Séléna, est la star d'une série télé populaire et Valérie, compagne de Leonard, assiste vaillamment un homme politique. Les relations entre les deux couples vont se compliquer. NFO Show/hide text General Unique ID : 18645742271306934874784575321473141512 (0xE070A1206CD8D4AE630F9285919CB08) Complete name : Doubles.Vies.2018.FRENCH.1080p.BluRay.Light.x264.AC3-ACOOL.WwW.Zone-Telechargement.Net.mkv Format : Matroska Format version : Version 4 / Version 2 File size : 2.28 GiB Duration : 1 h 47 min Overall bit rate : 3 049 kb/s Movie name : Doubles Vies Encoded date : UTC 2019-10-03 21:09:32 Writing application : mkvmerge v25.0.0 ('Prog Noir') 64-bit Writing library : libebml v1.3.6 + libmatroska v1.4.9 Video ID : 1 Format : AVC Format/Info : Advanced Video Codec Format profile : [email protected] Format settings : CABAC / 4 Ref Frames Format settings, CABAC : Yes Format settings, ReFrames : 4 frames Codec ID : V_MPEG4/ISO/AVC Duration : 1 h 47 min Bit rate : 2 600 kb/s Width : 1 920 pixels Height : 1 040 pixels Display aspect ratio : 1.85:1 Frame rate mode : Constant Frame rate : 24.000 FPS Color space : YUV Chroma subsampling : 4:2:0 Bit depth : 8 bits Scan type : Progressive Bits/(Pixel*Frame) : 0.054 Stream size : 1.95 GiB (85%) Writing library : x264 core 155 r2901 7d0ff22 Encoding settings : cabac=1 / ref=1 / deblock=1:0:0 / analyse=0x3:0x113 / me=hex / subme=2 / psy=1 / psy_rd=1.00:0.00 / mixed_ref=0 / me_range=16 / chroma_me=1 / trellis=0 / 8x8dct=1 / cqm=0 / deadzone=21,11 / fast_pskip=1 / chroma_qp_offset=0 / threads=32 / lookahead_threads=8 / sliced_threads=0 / nr=0 / decimate=1 / interlaced=0 / bluray_compat=0 / constrained_intra=0 / bframes=3 / b_pyramid=2 / b_adapt=1 / b_bias=0 / direct=1 / weightb=1 / open_gop=0 / weightp=1 / keyint=240 / keyint_min=24 / scenecut=40 / intra_refresh=0 / rc_lookahead=10 / rc=2pass / mbtree=1 / bitrate=2600 / ratetol=1.0 / qcomp=0.60 / qpmin=0 / qpmax=69 / qpstep=4 / cplxblur=20.0 / qblur=0.5 / vbv_maxrate=62500 / vbv_bufsize=78125 / nal_hrd=none / filler=0 / ip_ratio=1.40 / aq=1:1.00 Default : Yes Forced : No Color range : Limited Color primaries : BT.709 Transfer characteristics : BT.709 Matrix coefficients : BT.709 Audio ID : 2 Format : AC-3 Format/Info : Audio Coding 3 Codec ID : A_AC3 Duration : 1 h 47 min Bit rate mode : Constant Bit rate : 448 kb/s Channel(s) : 6 channels Channel positions : Front: L C R, Side: L R, LFE Sampling rate : 48.0 kHz Frame rate : 31.250 FPS (1536 SPF) Bit depth : 16 bits Compression mode : Lossy Stream size : 343 MiB (15%) Title : French AC3 5.1 448kb/s Language : French Service kind : Complete Main Default : Yes Forced : No Menu 00:00:00.000 : :Capítulo 01 00:09:57.750 : :Capítulo 02 00:18:52.167 : :Capítulo 03 00:25:58.875 : :Capítulo 04 00:35:16.333 : :Capítulo 05 00:45:21.875 : :Capítulo 06 00:55:13.042 : :Capítulo 07 01:03:02.458 : :Capítulo 08 01:11:11.667 : :Capítulo 09 01:20:26.000 : :Capítulo 10 01:29:51.583 : :Capítulo 11 01:37:41.250 : :Capítulo 12 01:43:53.708 : :Capítulo 13


Autres versions disponibles Télécharger le Films Doubles Vies en fichier torrent de haute qualité, disponible au téléchargement Doubles Vies