Films

Venise n'est pas en Italie

05-10-2019
Venise n'est pas en Italie



Qualité/Format/Langue: HDLight 1080p FRENCH

Elevé dans une famille fantasque et inclassable, Emile est invité par la fille dont il est amoureux à Venise pour les vacances. Seul problème, et de taille, ses parents décident de l'accompagner avec leur caravane, pour un voyage aussi rocambolesque qu'initiatique.NFO Show/hide text General Unique ID : 8535572149852771780190085534273809031 (0x66BE432C36DC7727E08D434A7E4AA87) Complete name : Venise.N.Est.Pas.En.Italie.2019.FRENCH.1080p.BluRay.Light.x264.AC3-ACOOL.WwW.Zone-Telechargement.Net.mkv Format : Matroska Format version : Version 4 / Version 2 File size : 2.13 GiB Duration : 1 h 33 min Overall bit rate : 3 249 kb/s Movie name : Venise n'est pas en Italie Encoded date : UTC 2019-10-05 14:36:20 Writing application : mkvmerge v25.0.0 ('Prog Noir') 64-bit Writing library : libebml v1.3.6 + libmatroska v1.4.9 Video ID : 1 Format : AVC Format/Info : Advanced Video Codec Format profile : [email protected] Format settings : CABAC / 4 Ref Frames Format settings, CABAC : Yes Format settings, ReFrames : 4 frames Codec ID : V_MPEG4/ISO/AVC Duration : 1 h 33 min Bit rate : 2 800 kb/s Width : 1 920 pixels Height : 808 pixels Display aspect ratio : 2.40:1 Original display aspect rat : 2.40:1 Frame rate mode : Constant Frame rate : 23.976 (24000/1001) FPS Color space : YUV Chroma subsampling : 4:2:0 Bit depth : 8 bits Scan type : Progressive Bits/(Pixel*Frame) : 0.075 Stream size : 1.83 GiB (86%) Writing library : x264 core 155 r2901 7d0ff22 Encoding settings : cabac=1 / ref=1 / deblock=1:0:0 / analyse=0x3:0x113 / me=hex / subme=2 / psy=1 / psy_rd=1.00:0.00 / mixed_ref=0 / me_range=16 / chroma_me=1 / trellis=0 / 8x8dct=1 / cqm=0 / deadzone=21,11 / fast_pskip=1 / chroma_qp_offset=0 / threads=25 / lookahead_threads=6 / sliced_threads=0 / nr=0 / decimate=1 / interlaced=0 / bluray_compat=0 / constrained_intra=0 / bframes=3 / b_pyramid=2 / b_adapt=1 / b_bias=0 / direct=1 / weightb=1 / open_gop=0 / weightp=1 / keyint=240 / keyint_min=24 / scenecut=40 / intra_refresh=0 / rc_lookahead=10 / rc=2pass / mbtree=1 / bitrate=2800 / ratetol=1.0 / qcomp=0.60 / qpmin=0 / qpmax=69 / qpstep=4 / cplxblur=20.0 / qblur=0.5 / vbv_maxrate=62500 / vbv_bufsize=78125 / nal_hrd=none / filler=0 / ip_ratio=1.40 / aq=1:1.00 Default : Yes Forced : No Color range : Limited Color primaries : BT.709 Transfer characteristics : BT.709 Matrix coefficients : BT.709 Audio ID : 2 Format : AC-3 Format/Info : Audio Coding 3 Codec ID : A_AC3 Duration : 1 h 33 min Bit rate mode : Constant Bit rate : 448 kb/s Channel(s) : 6 channels Channel positions : Front: L C R, Side: L R, LFE Sampling rate : 48.0 kHz Frame rate : 31.250 FPS (1536 SPF) Bit depth : 16 bits Compression mode : Lossy Stream size : 301 MiB (14%) Title : French AC3 5.1 448kb/s Language : French Service kind : Complete Main Default : Yes Forced : No Menu 00:00:00.000 : :00:00:00.000 00:10:23.581 : :00:10:23.581 00:19:33.255 : :00:19:33.255 00:28:39.259 : :00:28:39.259 00:37:40.925 : :00:37:40.925 00:45:53.501 : :00:45:53.376 00:54:26.096 : :00:54:26.096 01:02:12.771 : :01:02:12.771 01:08:39.782 : :01:08:39.782 01:14:48.651 : :01:14:48.567 01:22:40.205 : :01:22:40.164 01:30:21.124 : :01:30:20.999


Autres versions disponibles
Télécharger le Films Venise n'est pas en Italie en fichier torrent de haute qualité, disponible au téléchargement