Films

Le Gangster, le flic l'assassin

06-12-2019
Le Gangster, le flic  l'assassin


Origine du film :Corée du Sud
Réalisateur(s) :Lee Won-Tae
Acteur(s) :Ma Dong-seok, Kim Moo-yul, Kim Sung-kyu
Genre :Thriller,Action,
Année de sortie :2019-08-14
Titre Original :Akinjeon
Note spectateur : - 3.9/5
Qualité/Format/Langue: HDLight 720p FRENCH

Un puissant chef de gang dont la férocité est redoutée dans le milieu manque de se faire assassiner par un homme qui prend la fuite sans être identifié. S'il a survécu à l'attaque, le gangster sait que sa réputation est irrémédiablement endommagée : il doit retrouver l'assassin et le faire payer... Show/hide text The.Gangster.the.Cop.the.Devil.2019.FRENCH.720p.HDLight.AC3.x264-RDH.WwW.Zone-Telechargement.NET.mkv Format : Matroska Format version : Version 4 File size : 1.88 GiB Duration : 1 h 49 min Overall bit rate : 2 448 kb/s Encoded date : UTC 2019-12-06 01:29:01 Writing application : mkvmerge v29.0.0 ('Like It Or Not') 32-bit Writing library : libebml v1.3.6 + libmatroska v1.4.9 / Lavf58.29.100 Video ID : 1 Format : AVC Format/Info : Advanced Video Codec Format profile : [email protected] Format settings : CABAC / 4 Ref Frames Format settings, CABAC : Yes Format settings, ReFrames : 4 frames Codec ID : V_MPEG4/ISO/AVC Duration : 1 h 49 min Bit rate : 2 000 kb/s Width : 1 280 pixels Height : 536 pixels Display aspect ratio : 2.40:1 Frame rate mode : Constant Frame rate : 24.000 FPS Color space : YUV Chroma subsampling : 4:2:0 Bit depth : 8 bits Scan type : Progressive Bits/(Pixel*Frame) : 0.121 Stream size : 1.53 GiB (82%) Writing library : x264 core 157 r2935 545de2f Encoding settings : cabac=1 / ref=2 / deblock=1:0:0 / analyse=0x1:0x111 / me=hex / subme=6 / psy=1 / psy_rd=1.00:0.00 / mixed_ref=1 / me_range=16 / chroma_me=1 / trellis=1 / 8x8dct=0 / cqm=0 / deadzone=21,11 / fast_pskip=1 / chroma_qp_offset=-2 / threads=17 / lookahead_threads=2 / sliced_threads=0 / nr=0 / decimate=1 / interlaced=0 / bluray_compat=0 / constrained_intra=0 / bframes=3 / b_pyramid=2 / b_adapt=1 / b_bias=0 / direct=1 / weightb=1 / open_gop=0 / weightp=1 / keyint=240 / keyint_min=24 / scenecut=40 / intra_refresh=0 / rc_lookahead=30 / rc=2pass / mbtree=1 / bitrate=2000 / ratetol=1.0 / qcomp=0.60 / qpmin=0 / qpmax=69 / qpstep=4 / cplxblur=20.0 / qblur=0.5 / vbv_maxrate=14000 / vbv_bufsize=14000 / nal_hrd=none / filler=0 / ip_ratio=1.40 / aq=1:1.00 Default : Yes Forced : No Color range : Limited Color primaries : BT.709 Transfer characteristics : BT.709 Matrix coefficients : BT.709 Audio ID : 2 Format : AC-3 Format/Info : Audio Coding 3 Commercial name : Dolby Digital Codec ID : A_AC3 Duration : 1 h 49 min Bit rate mode : Constant Bit rate : 448 kb/s Channel(s) : 6 channels Channel layout : L R C LFE Ls Rs Sampling rate : 48.0 kHz Frame rate : 31.250 FPS (1536 SPF) Bit depth : 16 bits Compression mode : Lossy Delay relative to video : 3 ms Stream size : 352 MiB (18%) Language : French Service kind : Complete Main Default : Yes Forced : No Text ID : 3 Format : UTF-8 Codec ID : S_TEXT/UTF8 Codec ID/Info : UTF-8 Plain Text Duration : 1 h 44 min Bit rate : 0 b/s Count of elements : 22 Stream size : 677 Bytes (0%) Title : FORCED Language : French Default : Yes Forced : Yes Menu 00:00:00.000 : :Chapter 1 00:09:32.875 : :Chapter 2 00:18:25.750 : :Chapter 3 00:26:37.625 : :Chapter 4 00:37:36.625 : :Chapter 5 00:47:04.542 : :Chapter 6 01:01:17.250 : :Chapter 7 01:11:17.125 : :Chapter 8 01:20:57.750 : :Chapter 9 01:32:53.000 : :Chapter 10 01:45:46.500 : :Chapter 11


Autres versions disponibles Télécharger le Films Le Gangster, le flic l'assassin en fichier torrent de haute qualité, disponible au téléchargement Akinjeon