Films

Maléfique : Le Pouvoir du Mal

04-01-2020
Maléfique : Le Pouvoir du Mal


Origine du film :U.S.A.
Réalisateur(s) :Joachim Rønning
Acteur(s) :Angelina Jolie, Elle Fanning, Harris Dickinson
Genre :Fantastique,Aventure,
Année de sortie :2019-10-16
Titre Original :Maleficent: Mistress of Evil
Note spectateur : - 4/5
Qualité/Format/Langue: HDLight 720p TRUEFRENCH

« Maléfique : Le Pouvoir du Mal » continue d'explorer les relations complexes entre la sorcière et la future reine, alors qu'elles nouent d'autres alliances et affrontent de nouveaux adversaires dans leur combat pour protéger leurs terres et les créatures magiques qui les peuplent. Show/hide text Maleficent.Mistress.of.Evil.2019.TRUEFRENCH.720p.HDLight.AC3.x264-RDH.WwW.Zone-Telechargement.NET.mkv Format : Matroska Format version : Version 4 File size : 2.03 GiB Duration : 1 h 58 min Overall bit rate : 2 449 kb/s Encoded date : UTC 2020-01-04 13:44:16 Writing application : mkvmerge v29.0.0 ('Like It Or Not') 32-bit Writing library : libebml v1.3.6 + libmatroska v1.4.9 / Lavf58.29.100 Video ID : 1 Format : AVC Format/Info : Advanced Video Codec Format profile : [email protected] Format settings : CABAC / 4 Ref Frames Format settings, CABAC : Yes Format settings, ReFrames : 4 frames Codec ID : V_MPEG4/ISO/AVC Duration : 1 h 58 min Bit rate : 2 000 kb/s Width : 1 280 pixels Height : 536 pixels Display aspect ratio : 2.40:1 Frame rate mode : Constant Frame rate : 23.976 (24000/1001) FPS Color space : YUV Chroma subsampling : 4:2:0 Bit depth : 8 bits Scan type : Progressive Bits/(Pixel*Frame) : 0.122 Stream size : 1.66 GiB (82%) Writing library : x264 core 157 r2935 545de2f Encoding settings : cabac=1 / ref=2 / deblock=1:0:0 / analyse=0x1:0x111 / me=hex / subme=6 / psy=1 / psy_rd=1.00:0.00 / mixed_ref=1 / me_range=16 / chroma_me=1 / trellis=1 / 8x8dct=0 / cqm=0 / deadzone=21,11 / fast_pskip=1 / chroma_qp_offset=-2 / threads=17 / lookahead_threads=2 / sliced_threads=0 / nr=0 / decimate=1 / interlaced=0 / bluray_compat=0 / constrained_intra=0 / bframes=3 / b_pyramid=2 / b_adapt=1 / b_bias=0 / direct=1 / weightb=1 / open_gop=0 / weightp=1 / keyint=240 / keyint_min=24 / scenecut=40 / intra_refresh=0 / rc_lookahead=30 / rc=2pass / mbtree=1 / bitrate=2000 / ratetol=1.0 / qcomp=0.60 / qpmin=0 / qpmax=69 / qpstep=4 / cplxblur=20.0 / qblur=0.5 / vbv_maxrate=14000 / vbv_bufsize=14000 / nal_hrd=none / filler=0 / ip_ratio=1.40 / aq=1:1.00 Default : Yes Forced : No Color range : Limited Color primaries : BT.709 Transfer characteristics : BT.709 Matrix coefficients : BT.709 Audio ID : 2 Format : AC-3 Format/Info : Audio Coding 3 Commercial name : Dolby Digital Codec ID : A_AC3 Duration : 1 h 58 min Bit rate mode : Constant Bit rate : 448 kb/s Channel(s) : 6 channels Channel layout : L R C LFE Ls Rs Sampling rate : 48.0 kHz Frame rate : 31.250 FPS (1536 SPF) Bit depth : 16 bits Compression mode : Lossy Delay relative to video : -5 ms Stream size : 381 MiB (18%) Language : French Service kind : Complete Main Default : Yes Forced : No Text ID : 3 Format : UTF-8 Codec ID : S_TEXT/UTF8 Codec ID/Info : UTF-8 Plain Text Duration : 2 min 24 s Bit rate : 15 b/s Count of elements : 17 Stream size : 288 Bytes (0%) Title : FORCED Language : French Default : Yes Forced : Yes


Autres versions disponibles Télécharger le Films Maléfique : Le Pouvoir du Mal en fichier torrent de haute qualité, disponible au téléchargement Maleficent: Mistress of Evil, zone Maléfique : Le Pouvoir du Mal film, gratuit Maléfique : Le Pouvoir du Mal 2020 hd-dvd